Clockstoppers (2002) 1080p WEB-Rip x264 Torrent Free Download

Seeders : 83   &   Leechers : 426      09-11-2018 (1 week)
Clockstoppers (2002) 1080p WEB-Rip x264 Torrent Download
Added: ago by TheFighter ***** in Movies   4.0 GB   Hits : 24
Info Hash: F347D850827794C43AE7206A4D3C6C6310934D00 Download
Clockstoppers (2002) 1080p WEB-Rip x264 Torrent Download

Anonymous and Direct Download movies , software , shows...

Fast Safe Anonymous
movies, software, shows...
Clockstoppers
Action /Adventure /Comedy /Sci-Fi /Thriller  .   94 min   5.2/10
Director : Jonathan Frakes  
Tags: Clockstoppers  (2002)  1080p  WEB-Rip  x264  Dual  

Released:
29 Mar 2002
Until now, Zak Gibbs' greatest challenge has been finding a way to buy a car. But when he discovers an odd wristwatch amidst his father's various inventions and slips it on, something very strange happens. The world around him seemingly comes to a stop; giving the .... See More effect that everyone has come to a stop. Zak quickly learns how to manipulate the device, and he and his quick-witted, beautiful new friend, Francesca, have some real fun. What they soon realize, though, is they are not alone in hypertime.

Torrent Description











Clockstoppers (2002) 1080p WEB-Rip x264 Dual Audio [Hindi DD5.1 - English DD5.1] - ESUB ~ Ranvijay


Thanks To The Punisher For Hindi Audio

Buy RDP Online




Format : Matroska
Format version : Version 4 / Version 2
File size : 4.00 GiB
Duration : 1 h 34 min
Overall bit rate : 6 086 kb/s
Movie name : Clockstoppers (2002) 1080p WEB-Rip x264 Dual Audio [Hindi DD5.1 - English DD5.1] - ESUB ~ Ranvijay

Video
ID : 1
Format : AVC
Format/Info : Advanced Video Codec
Duration : 1 h 34 min
Bit rate : 5 000 kb/s
Width : 1 920 pixels
Height : 1 080 pixels
Display aspect ratio : 16:9
Frame rate mode : Constant
Frame rate : 23.976 (24000/1001) FPS
Color space : YUV
Chroma subsampling : 4:2:0
Bit depth : 8 bits
Scan type : Progressive
Bits/(Pixel*Frame) : 0.101
Stream size : 3.29 GiB (82%)
Title : ~Ranvijay~

Audio #1
ID : 2
Format : AC-3
Format/Info : Audio Coding 3
Codec ID : A_AC3
Duration : 1 h 33 min
Bit rate mode : Constant
Bit rate : 640 kb/s
Channel(s) : 6 channels
Channel positions : Front: L C R, Side: L R, LFE
Sampling rate : 48.0 kHz
Frame rate : 31.250 FPS (1536 SPF)
Bit depth : 16 bits
Compression mode : Lossy
Delay relative to video : 8 s 12 ms
Stream size : 430 MiB (11%)
Title : ~Ranvijay~
Language : Hindi
Service kind : Complete Main
Default : Yes
Forced : Yes

Audio #2
ID : 3
Format : AC-3
Format/Info : Audio Coding 3
Codec ID : A_AC3
Duration : 1 h 34 min
Bit rate mode : Constant
Bit rate : 448 kb/s
Channel(s) : 6 channels
Channel positions : Front: L C R, Side: L R, LFE
Sampling rate : 48.0 kHz
Frame rate : 31.250 FPS (1536 SPF)
Bit depth : 16 bits
Compression mode : Lossy
Stream size : 302 MiB (7%)
Title : ~Ranvijay~
Language : English
Service kind : Complete Main
Default : No
Forced : No

Text
ID : 4
Format : UTF-8
Codec ID : S_TEXT/UTF8
Codec ID/Info : UTF-8 Plain Text
Duration : 1 h 28 min
Bit rate : 68 b/s
Count of elements : 1382
Stream size : 44.6 KiB (0%)
Title : ~Ranvijay~
Language : English
Default : Yes
Forced : Yes













Don't walk as you are king, walk as you don't care who the king is....!!





Sharing Widget


No Comments For This Torrent . Be The First to Comment

You must Login to Comment . Click Here to Login

Menu 1

Some content in menu 1.

Clockstoppers (2002) 1080p WEB-Rip x264 Dual Audio [Hindi DD5 1 - Engl (Size: 4.0 GB)
  Clockstoppers (2002) 1080p WEB-Rip x264 Dual Audio [Hindi DD5 1 - Engl 4.0 GB
tracker name
udp://tracker.leechers-paradise.org:6969/announce
udp://zer0day.ch:1337/announce
udp://open.demonii.com:1337/announce
udp://tracker.coppersurfer.tk:6969/announce
udp://exodus.desync.com:6969/announce
µTorrent compatible trackers list

Relative Torrents

Torrent Name Size Age SEED LEECH
Dynasty 2017 S02E06 1080p AMZN WEBRip DD5 1 x264-KiNGS
Posted by    Trige   in   TV
3.1 GB 7 minutes 635 152
Z Nation S05E07 720p AMZN WEBRip DDP5 1 264-KiNGS
Posted by    Trige   in   TV
1.4 GB 7 minutes 826 637
Blue Bloods S09E08 720p WEB x264 [425MB][MP4]
Posted by    TorrentCouch   in   TV
425.8 MB 7 minutes 690 756
Z Nation S05E07 Docs Stoned History 720pAMZN WEB-DL DDP5 1 H 264-KiNGS[TGx]
Posted by    mazemaze16   in   TV
1.4 GB 7 minutes 576 988
Dynasty 2017 S02E06 That Witch 720p AMZNWEB-DL DDP5 1 H 264-KiNGS[TGx]
Posted by    mazemaze16   in   TV
831.2 MB 7 minutes 323 371